You.Dont.Mess.With.The.Zohan.Unrated.Extended.(2008).720p.BluRay.x264.{Hind.DD5.1.Eng}.-.Hon3yHD

Posted on August 10, 2018 in Movies » Misc , verified torrent

Size: 1.3 GB , Seeds: 2 , Peers: 9 ( Updated August 10, 2018 - Refresh )

* Download via Magnet Link , * To download files you need a Bittorrent Client , * How to download torrents from Bit Torrent Scene?

Scrape History ( seeds + peers )

Internal Files

You.Dont.Mess.With.The.Zohan.Unrated.Extended.(2008).720p.BluRay.x264.{Hind.DD5.1.Eng}.-.Hon3yHD
You.Dont.Mess.With.The.Zohan.Unrated.Extended.(2008).720p.BluRay.x264.{Hind.DD5.1.Eng}.-.Hon3yHD.mkv   1.3 GB

Torrent Seed By www.cyber-planet.in.txt   0.1 KB

Hon3yHD.net.txt   0.1 KB

Hash Code

580cfb95d802629a908dd79d3af8e72a956c22ac

Description


SCREENSHOT

https://www.imdb.com/title/tt0960144/

Format : Matroska

Format version : Version 4 / Version 2

File size : 1.31 GiB

Duration : 1 h 56 min

Overall bit rate : 1 607 kb/s


Video

ID : 1

Format : AVC

Format/Info : Advanced Video Codec

Format profile : [email protected]
Format settings : CABAC / 8 Ref Frames

Format settings, CABAC : Yes

Format settings, ReFrames : 8 frames

Codec ID : V_MPEG4/ISO/AVC

Duration : 1 h 56 min

Bit rate : 1 000 kb/s

Width : 1 280 pixels

Height : 688 pixels

Display aspect ratio : 1.85:1

Frame rate mode : Constant

Frame rate : 23.976 (24000/1001) FPS


Audio #1

ID : 2

Format : AC-3

Format/Info : Audio Coding 3

Commercial name : Dolby Digital

Codec ID : A_AC3

Duration : 1 h 56 min

Bit rate mode : Constant

Bit rate : 448 kb/s

Channel(s) : 6 channels

Channel positions : Front: L C R, Side: L R, LFE

Sampling rate : 48.0 kHz

Frame rate : 31.250 FPS (1536 SPF)

Bit depth : 16 bits

Compression mode : Lossy

Delay relative to video : -21 ms

Stream size : 374 MiB (28%)

Title : Hindi Org DVD 5.1 448 kbps
Language : Hindi

Service kind : Complete Main



Audio #2

ID : 3

Format : AAC

Format/Info : Advanced Audio Codec

Format profile : LC

Codec ID : A_AAC-2

Duration : 1 h 56 min

Bit rate : 128 kb/s

Channel(s) : 2 channels

Channel positions : Front: L R

Sampling rate : 48.0 kHz

Frame rate : 46.875 FPS (1024 SPF)

Compression mode : Lossy

Delay relative to video : -21 ms

Stream size : 107 MiB (8%)

Title : Stereo

Language : English


SCREENSHOT

SCREENSHOT SCREENSHOT SCREENSHOT SCREENSHOT

Torrent location

https://www.1337x.to/torrent/3167327/You-Dont-Mess-With-The-Zohan-Unrated-Extended-2008-720p-BluRay-x264-Hind-DD5-1-Eng-Hon3yHD/

Trackers

Refresh Leechers : Updated August 10, 2018

1. udp://9.rarbg.com:2710/announce

2. udp://tracker.opentrackr.org:1337/announce

3. udp://tracker.pirateparty.gr:6969/announce

4. udp://tracker.leechers-paradise.org:6969/announce

5. udp://tracker.coppersurfer.tk:6969/announce

6. udp://tracker.zer0day.to:1337/announce

Comments

You must log in to add a comment.

Embed Code

Sharing Widget

Related torrents

FILENAME SIZE SEEDS PEERS ADDED UPD
[i] Love.and.Hip.Hop.Atlanta.S07E12.Dont.Mess.With.Texas.HDTV.x26... 315.43 MB 16 5 2 months 6 days
[i] The.Rap.Game.S04E01.Dont.Mess.With.JNY.HDTV.x264-CRiMSON[ettv... 450.13 MB 2 3 8 months 3 months
[i] Love.and.Hip.Hop.Atlanta.S07E12.Dont.Mess.With.Texas.XviD-AFG 688.84 MB 1 2 2 months 6 days
[i] You Dont Mess With the Zohan[2008][Eng][sub arabic]DvDrip-ToZoon 652.3 MB 0 0 9 years 2 weeks
[i] You Dont Mess with the Zohan 2008 720P BLURAY X264-OUTDATED 4.39 GB 0 0 9 years 2 weeks
[i] You.Dont.Mess.With.The.Zohan.UNRATED.DVDRip.XviD-ARROW #2 1.4 GB 0 1 5 years 1 year
[i] CanHeScore - Alexis Texas {Dont mess with Texas} 546.79 MB 0 1 5 years 1 year
[i] Baby Got Boobs Scarlett Monroe Dont Mess With Monroe XXX 1080p pornalized mp4
posted by yiang75 in Porn - Movies
558.47 MB 0 0 5 years 1 year
[i] [Brazzers][BGB] Dont Mess With Monroe - Scarlett Monroe [480P] 558.57 MB 0 1 5 years 1 year
[i] Hegre-Art.13.11.25.Nataly.N.Dont.Mess.With.Me.XXX.IMAGESET-FuGLi 228.32 MB 0 1 4 years 1 year

Top Movies ( auto generated report )

FILENAME SIZE SEEDS PEERS ADDED UPD
[i] The Meg 2018 HDCAM XViD AC3-ETRG 1.26 GB 806 669 3 days 2 days
[i] TAG 2018 BRRip XViD-ETRG 705.11 MB 690 375 3 days 2 days
[i] Skyscraper.2018.HC.HDRip.XviD.AC3-EVO 1.36 GB 603 204 4 days 1 day
[i] The Package 2018 HDRip XViD-ETRG 704.87 MB 536 430 4 days 3 days
[i] Skyscraper.2018.720p.HC.HDRip.X264.AC3-EVO 2.53 GB 456 207 4 days 3 days
[i] The Spy Who Dumped Me 2018 HDCAM XViD AC3-ETRG 1.25 GB 455 395 2 days 1 day
[i] Love at Sea 2018 Hallmark 720p HDTV X264 Solar 1.08 GB 283 93 1 day 19 hours
[i] Hotel Artemis 2018 HDCAM XViD AC3-ETRG 1.17 GB 261 209 3 days 2 days
[i] Skyscraper 2018 720p HC HDRip x264 Dual Audio [Hindi - English] [MW] 916.04 MB 241 195 3 days 2 days
[i] 2047 - Virtual Revolution 720p h264 ita eng sub ita fre-MIRCrew 1.8 GB 231 176 3 days 2 days