What We Do in the Shadows - Vita da vampiro (2014).H264.italian.english.Ac3-5.1.sub.ita.eng.MIRCrew

Posted by robbyrs3 •647 on March 14, 2018 in Movies » Horror , verified torrent

Size: 1.18 GB , Seeds: 7 , Peers: 2 ( Updated June 21, 2018 - Refresh )

* Download via Magnet Link , * To download files you need a Bittorrent Client , * How to download torrents from Bit Torrent Scene?

Scrape History ( seeds + peers )

Internal Files

Vita da vampiro - What We Do in the Shadows (2014).H264.ita.eng.sub.ita.eng-MIRCRew
MIRCrew-ilCorSaRoNeRo.txt   53 Byte
Vita da vampiro - What We Do in the Shadows (2014).H264.ita.eng.sub.ita.eng-MIRCRew.eng.idx   1.29 KB
Vita da vampiro - What We Do in the Shadows (2014).H264.ita.eng.sub.ita.eng-MIRCRew.eng.sub   76 KB
Vita da vampiro - What We Do in the Shadows (2014).H264.ita.eng.sub.ita.eng-MIRCRew.idx   1.29 KB
Vita da vampiro - What We Do in the Shadows (2014).H264.ita.eng.sub.ita.eng-MIRCRew.ita.idx   59.91 KB
Vita da vampiro - What We Do in the Shadows (2014).H264.ita.eng.sub.ita.eng-MIRCRew.ita.sub   5.33 MB
Vita da vampiro - What We Do in the Shadows (2014).H264.ita.eng.sub.ita.eng-MIRCRew.mkv   1.18 GB
Vita da vampiro - What We Do in the Shadows (2014).H264.ita.eng.sub.ita.eng-MIRCRew.sub   76 KB

Hash Code

c97fe4db7186d5affb37861acf196f448c4e7e5a

Description

What We Do in the Shadows - Vita da vampiro (2014).H264.italian.english.Ac3-5.1.sub.ita.eng.MIRCrew

SCREENSHOT
NO FOUND ONLY ORIGINAL RELEASE

SCREENSHOT

My release is always in double track audio italian and Original audio
for select it use VLC or dvd player home
not use wmp

Vita da vampiro - What We Do in the Shadows (2014)

SCREENSHOT

SCREENSHOT

SCREENSHOT

Titolo originale What We Do in the Shadows
Lingua originale inglese
Paese di produzione Nuova Zelanda
Anno 2014
Durata 86 min
Genere commedia, orrore
Regia Taika Waititi, Jemaine Clement
Sceneggiatura Taika Waititi, Jemaine Clement
Produttore Taika Waititi, Chelsea Winstanley, Emanuel Michael
Fotografia Richard Bluck, D.J. Stipsen
Musiche Plan 9

SCREENSHOT

Taika Waititi: Viago
Jemaine Clement: Vladislav
Jonathan Brugh: Deacon
Ben Fransham: Petyr
Cori Gonzalez-Macuer: Nick
Stuart Rutherford: Stu
Jackie van Beek: Jackie
Rhys Darby: Anton

SCREENSHOT

Viago, Vladislav, Deacon e Petyr sono quattro vampiri, di età molto diversa, e vivono nell'attuale capitale della Nuova Zelanda, Wellington. Conducono un'esistenza più o meno normale, litigando per questioni casalinghe (i turni nel lavare i piatti) ma riuscendo nel complesso a far convivere le loro personalità molto diverse..................

SCREENSHOT

Viago, Deacon, and Vladislav are vampires who are finding that modern life has them struggling with the mundane - like paying rent, keeping up with the chore wheel, trying to get into nightclubs, and overcoming flatmate conflicts. ........

SCREENSHOT

SCREENSHOT
SCREENSHOT
SCREENSHOT
SCREENSHOT


SCREENSHOT

[spoiler]
General
Unique ID : 283913446554739354369083475661399609641 (0xD597BDA741E69577E0064E796C815129)
Complete name : Vita da vampiro - What We Do in the Shadows (2014).H264.ita.eng.sub.ita.eng-MIRCRewVita da vampiro - What We Do in the Shadows (2014).H264.ita.eng.sub.ita.eng-MIRCRew.mkv
Format : Matroska
Format version : Version 2
File size : 1.18 GiB
Duration : 1h 22mn
Overall bit rate : 2 052 Kbps
Encoded date : UTC 2018-03-11T16:39:05Z
Writing application : HandBrake 0.10.5 2016021100
Writing library : Lavf55.12.0

Video
ID : 1
Format : AVC
Format/Info : Advanced Video Codec
Format profile : High@L4.1
Format settings, CABAC : Yes
Format settings, ReFrames : 4 frames
Codec ID : V_MPEG4/ISO/AVC
Duration : 1h 22mn
Bit rate : 1 300 Kbps
Width : 720 pixels
Height : 404 pixels
Display aspect ratio : 16:9
Frame rate mode : Variable
Frame rate : 25.000 fps
Color space : YUV
Chroma subsampling : 4:2:0
Bit depth : 8 bits
Scan type : Progressive
Bits/(Pixel*Frame) : 0.179
Stream size : 729 MiB (61%)
Writing library : x264 core 142 r2479 dd79a61
Encoding settings : cabac=1 / ref=3 / deblock=1:-1:-1 / analyse=0x3:0x113 / me=hex / subme=7 / psy=1 / psy_rd=1.00:0.15 / mixed_ref=1 / me_range=16 / chroma_me=1 / trellis=1 / 8x8dct=1 / cqm=0 / deadzone=21,11 / fast_pskip=1 / chroma_qp_offset=-3 / threads=3 / lookahead_threads=1 / sliced_threads=0 / nr=0 / decimate=1 / interlaced=0 / bluray_compat=0 / constrained_intra=0 / bframes=3 / b_pyramid=2 / b_adapt=1 / b_bias=0 / direct=1 / weightb=1 / open_gop=0 / weightp=2 / keyint=250 / keyint_min=25 / scenecut=40 / intra_refresh=0 / rc_lookahead=40 / rc=abr / mbtree=1 / bitrate=1300 / ratetol=1.0 / qcomp=0.60 / qpmin=0 / qpmax=69 / qpstep=4 / vbv_maxrate=62500 / vbv_bufsize=78125 / nal_hrd=none / filler=0 / ip_ratio=1.40 / aq=1:1.00
Default : Yes
Forced : No
Color primaries : BT.470-6 System B, BT.470-6 System G, BT.601-6 625, BT.1358 625, BT.1700 625 PAL, BT.1700 625 SECAM
Transfer characteristics : BT.709-5, BT.1361
Matrix coefficients : BT.601-6 525, BT.1358 525, BT.1700 NTSC, SMPTE 170M

Audio #1
ID : 2
Format : AC-3
Format/Info : Audio Coding 3
Mode extension : CM (complete main)
Codec ID : A_AC3
Duration : 1h 22mn
Bit rate mode : Constant
Bit rate : 384 Kbps
Channel(s) : 6 channels
Channel positions : Front: L C R, Side: L R, LFE
Sampling rate : 48.0 KHz
Bit depth : 16 bits
Compression mode : Lossy
Delay relative to video : 1mn 5s
Stream size : 225 MiB (19%)
Title : Surround
Language : Italian
Default : Yes
Forced : No

Audio #2
ID : 3
Format : AC-3
Format/Info : Audio Coding 3
Mode extension : CM (complete main)
Codec ID : A_AC3
Duration : 1h 22mn
Bit rate mode : Constant
Bit rate : 384 Kbps
Channel(s) : 6 channels
Channel positions : Front: L C R, Side: L R, LFE
Sampling rate : 48.0 KHz
Bit depth : 16 bits
Compression mode : Lossy
Delay relative to video : 1mn 5s
Stream size : 225 MiB (19%)
Title : Surround
Language : English
Default : No
Forced : No

Text #1
ID : 4
Format : VobSub
Codec ID : S_VOBSUB
Codec ID/Info : The same subtitle format used on DVDs
Language : Italian
Default : No
Forced : No

Text #2
ID : 5
Format : VobSub
Codec ID : S_VOBSUB
Codec ID/Info : The same subtitle format used on DVDs
Language : Italian
Default : No
Forced : No

Text #3
ID : 6
Format : VobSub
Codec ID : S_VOBSUB
Codec ID/Info : The same subtitle format used on DVDs
Language : English
Default : No
Forced : No

Menu
00:00:00.000 : :Chapter 1
00:09:00.560 : :Chapter 2
00:18:18.320 : :Chapter 3
00:26:45.200 : :Chapter 4
00:32:05.360 : :Chapter 5
00:39:17.360 : :Chapter 6
00:45:25.520 : :Chapter 7
00:52:04.400 : :Chapter 8
00:58:48.080 : :Chapter 9
01:07:18.320 : :Chapter 10
01:13:56.240 : :Chapter 11
01:18:44.240 : :Chapter 12


[/spoiler]

Trackers

Refresh Leechers : Updated June 21, 2018

1. udp://tracker.coppersurfer.tk:6969/announce

2. udp://tracker.opentrackr.org:1337/announce

3. udp://tracker.pirateparty.gr:6969/announce

4. udp://tracker.zer0day.to:1337/announce

5. udp://p4p.arenabg.com:1337/announce

6. udp://p4p.arenabg.ch:1337/announce

7. udp://eddie4.nl:6969/announce

8. udp://tracker.leechers-paradise.org:6969/announce

9. udp://9.rarbg.me:2740/announce

10. udp://9.rarbg.to:2740/announce

11. udp://9.rarbg.com:2710/announce

12. udp://tracker.internetwarriors.net:1337/announce

13. udp://tracker.cyberia.is:6969/announce

Comments

You must log in to add a comment.

Embed Code

Sharing Widget

Related torrents

FILENAME SIZE SEEDS PEERS ADDED UPD
[i] What a Man Wants (2018) 720p HDRip 700MB Ganool 700.39 MB 162 10 1 month 4 days
[i] What Lies Upstream (2017) [WEBRip] [720p] [YTS AM] 707.75 MB 135 22 1 month 2 weeks
[i] What Lies Upstream (2017) [WEBRip] [1080p] [YTS AM] 1.34 GB 128 17 1 month 2 weeks
[i] What If (2010) [BluRay] [720p] [YTS AM] 1008.62 MB 116 20 3 weeks 1 week
[i] VA - Now Thats What I Call Hits And Remixes 2018 (2018) Mp3 (320kbps) [Hunter]
posted by The_Hunter in Music - Pop
157.35 MB 99 3 1 month 1 week
[i]
[i]
NOW That's What I Call Jazz (3CD) (2018) Mp3 (320kbps) [Hunter]
posted by The_Hunter in Music - Jazz
540.28 MB 91 10 1 month 3 days
[i] [Brazzers]Adriana Chechik - What's Up Her Ass?(NEW**06.23.2018)
posted by nsanyi23 in Porn - Movies
394.77 MB 76 18 2 days 1 day
[i] What If (2010) [BluRay] [1080p] [YTS AM] 1.89 GB 76 24 3 weeks 1 week
[i] VA - Now Thats What I Call Remix 2CD (2018) Mp3 (VBR) [Hunter]
posted by The_Hunter in Music - Pop
325.65 MB 75 2 3 months 2 weeks
[i] What Every American Should Know About Europe
posted by bookflare in Ebooks - Misc
4.87 MB 68 6 2 days 1 day

Top Movies ( auto generated report )

FILENAME SIZE SEEDS PEERS ADDED UPD
[i] Rampage (2018) [WEBRip] [720p] [YTS AM] 924.3 MB 13321 5088 6 days 7 hours
[i] Rampage (2018) [WEBRip] [1080p] [YTS AM] 1.73 GB 10704 4452 6 days 7 hours
[i] Ready Player One (2018) [WEBRip] [1080p] [YTS AM] 2.24 GB 9905 2643 6 days 7 hours
[i] Ready Player One (2018) [WEBRip] [720p] [YTS AM] 1.16 GB 8586 2995 6 days 7 hours
[i] Stolen princess Ruslan and Ludmila (2018) [WEBRip] [720p] [YTS AM] 770.92 MB 3461 2144 1 day 6 hours
[i] Blockers (2018) [WEBRip] [720p] [YTS AM] 861.94 MB 3014 1665 4 days 2 days
[i] Isle of Dogs (2018) [WEBRip] [1080p] [YTS AM] 1.55 GB 2561 854 4 days 3 days
[i] Blockers (2018) [WEBRip] [1080p] [YTS AM] 1.62 GB 2549 1065 4 days 3 days
[i] Life of the Party (2018) [WEBRip] [720p] [YTS AM] 886.77 MB 2513 995 6 days 7 hours
[i] Stolen princess Ruslan and Ludmila (2018) [WEBRip] [1080p] [YTS AM] 1.45 GB 2489 1048 1 day 6 hours