Thelma 2017 1080p BluRay x264 AAC LLG

Posted by LifeLongg •1223 on February 14, 2018 in Movies » Drama , verified torrent

Size: 1.1 GB , Seeds: 0 , Peers: 1 ( Updated August 2, 2018 - Refresh )

* Download via Magnet Link , * To download files you need a Bittorrent Client , * How to download torrents from Bit Torrent Scene?

Scrape History ( seeds + peers )

Internal Files

Thelma.2017.1080p.BluRay.x264.AAC.LLG
Sample.mp4   25.9 MB
Thelma.2017.1080p.BluRay.x264.AAC.LLG.mp4   1.07 GB

Hash Code

83dc30f33f819da1f1a93b00e384d22b929a04ba

Description

******************************Thumbnail:**********************

SCREENSHOT

******************************Screenshots:********************

Screenshot 1

Screenshot 2

Screenshot 3

Screenshot 4

Screenshot 5

Screenshot 6

Screenshot 7

Screenshot 8

Screenshot 9

Screenshot 0

Complete name : Thelma.2017.1080p.BluRay.x264.AAC.LLG.mp4
Format : MPEG-4
Format profile : Base Media
Codec ID : isom (isom/iso2/avc1/mp41)
File size : 1.07 GiB
Duration : 1 h 56 min
Overall bit rate : 1 326 kb/s
Writing application : Lavf57.56.101

Video
ID : 1
Format : AVC
Format/Info : Advanced Video Codec
Format profile : High@L4
Format settings : CABAC / 4 Ref Frames
Format settings, CABAC : Yes
Format settings, RefFrames : 4 frames
Codec ID : avc1
Codec ID/Info : Advanced Video Coding
Duration : 1 h 56 min
Bit rate : 1 200 kb/s
Width : 1 920 pixels
Height : 800 pixels
Display aspect ratio : 2.40:1
Frame rate mode : Constant
Frame rate : 23.976 (23976/1000) FPS
Color space : YUV
Chroma subsampling : 4:2:0
Bit depth : 8 bits
Scan type : Progressive
Bits/(Pixel*Frame) : 0.033
Stream size : 988 MiB (90%)

Audio
ID : 2
Format : AAC
Format/Info : Advanced Audio Codec
Format profile : LC
Codec ID : mp4a-40-2
Duration : 1 h 56 min
Bit rate mode : Constant
Bit rate : 129 kb/s
Channel(s) : 2 channels
Channel positions : Front: L R
Sampling rate : 48.0 kHz
Frame rate : 46.875 FPS (1024 SPF)
Compression mode : Lossy
Stream size : 107 MiB (10%)
Default : Yes
Alternate group : 1

Trackers

Refresh Leechers : Updated August 2, 2018

1. udp://tracker.openbittorrent.com:80/announce

2. udp://tracker.opentrackr.org:1337/announce

Comments

You must log in to add a comment.

Embed Code

Sharing Widget

Top Movies ( auto generated report )

FILENAME SIZE SEEDS PEERS ADDED UPD
[i] The Meg 2018 HDCAM XViD AC3-ETRG 1.26 GB 806 669 3 days 2 days
[i] TAG 2018 BRRip XViD-ETRG 705.11 MB 690 375 3 days 2 days
[i] Skyscraper.2018.HC.HDRip.XviD.AC3-EVO 1.36 GB 603 204 3 days 22 hours
[i] The Package 2018 HDRip XViD-ETRG 704.87 MB 536 430 4 days 3 days
[i] Skyscraper.2018.720p.HC.HDRip.X264.AC3-EVO 2.53 GB 456 207 3 days 2 days
[i] The Spy Who Dumped Me 2018 HDCAM XViD AC3-ETRG 1.25 GB 455 395 1 day 23 hours
[i] Love at Sea 2018 Hallmark 720p HDTV X264 Solar 1.08 GB 283 93 1 day 13 hours
[i] Hotel Artemis 2018 HDCAM XViD AC3-ETRG 1.17 GB 261 209 3 days 2 days
[i] Skyscraper 2018 720p HC HDRip x264 Dual Audio [Hindi - English] [MW] 916.04 MB 241 195 3 days 2 days
[i] 2047 - Virtual Revolution 720p h264 ita eng sub ita fre-MIRCrew 1.8 GB 231 176 3 days 2 days