The Meg 2018 720p HDCAM x264 [MW]

Posted by moviefreak •2025 on August 10, 2018 in Movies » Action , verified torrent

Size: 1.11 GB , Seeds: 166 , Peers: 105 ( Updated August 11, 2018 - Refresh )

* Download via Magnet Link , * To download files you need a Bittorrent Client , * How to download torrents from Bit Torrent Scene?

Scrape History ( seeds + peers )

Internal Files

The Meg 2018 720p HDCAM x264 [MW]
The Meg 2018 720p HDCAM x264 [MW].mkv   1.11 GB

Hash Code

9c7a2baf99e3d5e573b02a17e3f297afb7d42a06

Description


SCREENSHOT


General
Format : Matroska
Format version : Version 4 / Version 2
File size : 1.11 GiB
Duration : 1 h 43 min
Overall bit rate : 1 538 kb/s

Video
ID : 1
Format : AVC
Format/Info : Advanced Video Codec
Format profile : High@L4.1
Format settings : CABAC / 4 Ref Frames
Format settings, CABAC : Yes
Format settings, RefFrames : 4 frames
Codec ID : V_MPEG4/ISO/AVC
Duration : 1 h 43 min
Bit rate : 1 400 kb/s
Width : 1 280 pixels
Height : 532 pixels
Display aspect ratio : 2.40:1
Frame rate mode : Constant
Frame rate : 29.970 (30000/1001) FPS
Color space : YUV
Chroma subsampling : 4:2:0
Bit depth : 8 bits
Scan type : Progressive
Bits/(Pixel*Frame) : 0.069
Stream size : 1.02 GiB (92%)
Writing library : x264 core 155 r2901 7d0ff22
Default : Yes
Forced : No

Audio
ID : 2
Format : AAC
Format/Info : Advanced Audio Codec
Format profile : LC
Codec ID : A_AAC-2
Duration : 1 h 43 min
Bit rate : 128 kb/s
Channel(s) : 2 channels
Channel positions : Front: L R
Sampling rate : 48.0 kHz
Frame rate : 46.875 FPS (1024 SPF)
Compression mode : Lossy
Stream size : 95.0 MiB (8%)
Default : Yes
Forced : No


https://pichub.site/image/RFzXR
https://pichub.site/image/RFKpY
https://pichub.site/image/RFBiB
https://pichub.site/image/RFgb6
https://pichub.site/image/RFGv4
https://pichub.site/image/RFuct

Trackers

Refresh Leechers : Updated August 11, 2018

1. udp://tracker.coppersurfer.tk:6969/announce

2. udp://tracker.pirateparty.gr:6969/announce

3. udp://tracker.coppersurfer.tk:6969/announce

4. udp://tracker.leechers-paradise.org:6969/announce

5. udp://eddie4.nl:6969/announce

6. udp://tracker.tiny-vps.com:6969/announce

7. udp://9.rarbg.me:2800/announce

8. udp://9.rarbg.to:2720/announce

9. udp://public.popcorn-tracker.org:6969/announce

10. udp://open.stealth.si:80/announce

11. udp://tracker.vanitycore.co:6969/announce

12. udp://tracker.opentrackr.org:1337/announce

13. udp://bt.firebit.co.uk:6969/announce

14. udp://shadowshq.yi.org:6969/announce

Comments

You must log in to add a comment.

Embed Code

Sharing Widget

Related torrents

FILENAME SIZE SEEDS PEERS ADDED UPD
[i] Skyscraper.2018.720p.HC.HDRip.X264.AC3-EVO 2.53 GB 456 207 4 days 3 days
[i]
[i]
The Equalizer 2 2018 720p HD-TS x264 [MW]
posted by moviefreak in Movies - Action
1.06 GB 435 82 1 week 3 days
[i] Deadpool 2 2018 Super Duper Cut UNRATED 720p BluRay x264-NeZu
posted by NeZu2k16 in Movies - Action
1.46 GB 290 525 5 days 4 days
[i] Love at Sea 2018 Hallmark 720p HDTV X264 Solar 1.08 GB 283 93 1 day 19 hours
[i] Skyscraper 2018 720p HC HDRip x264 Dual Audio [Hindi - English] [MW]
posted by moviefreak in Movies - Action
916.04 MB 241 195 3 days 2 days
[i] The Silent Man (2018) 720p H265 italian english Ac3-5 1 sub ita-BaMax71-MIRCrew
posted by BaMax1571 in Movies - Drama
1.73 GB 215 175 3 days 2 days
[i] Black Water (2018) 720p H265 Ita Eng Ac3-5 1 sub ita-BaMax71-MIRCrew
posted by BaMax1571 in Movies - Action
1.77 GB 213 160 5 days 4 days
[i] Contromano (2018).720p.H264.italian.Ac3-5.1.sub.NUita.eng-MIRCrew
posted by robbyrs3 in Movies - Comedy
1.6 GB 212 96 2 days 1 day
[i] Slender Man 2018 720p HDCAM x264 [MW]
posted by moviefreak in Movies - Horror
1020.31 MB 206 86 1 day 12 hours
[i] Avengers Infinity War 2018 720p BluRay x264-NeZu
posted by NeZu2k16 in Movies - Action
1.53 GB 173 73 1 week 4 days

Top Movies ( auto generated report )

FILENAME SIZE SEEDS PEERS ADDED UPD
[i] The Meg 2018 HDCAM XViD AC3-ETRG 1.26 GB 806 669 3 days 2 days
[i] TAG 2018 BRRip XViD-ETRG 705.11 MB 690 375 3 days 2 days
[i] Skyscraper.2018.HC.HDRip.XviD.AC3-EVO 1.36 GB 603 204 4 days 1 day
[i] The Package 2018 HDRip XViD-ETRG 704.87 MB 536 430 4 days 3 days
[i] Skyscraper.2018.720p.HC.HDRip.X264.AC3-EVO 2.53 GB 456 207 4 days 3 days
[i] The Spy Who Dumped Me 2018 HDCAM XViD AC3-ETRG 1.25 GB 455 395 2 days 1 day
[i] Love at Sea 2018 Hallmark 720p HDTV X264 Solar 1.08 GB 283 93 1 day 19 hours
[i] Hotel Artemis 2018 HDCAM XViD AC3-ETRG 1.17 GB 261 209 3 days 2 days
[i] Skyscraper 2018 720p HC HDRip x264 Dual Audio [Hindi - English] [MW] 916.04 MB 241 195 3 days 2 days
[i] 2047 - Virtual Revolution 720p h264 ita eng sub ita fre-MIRCrew 1.8 GB 231 176 3 days 2 days