Poseidon.2006.BluRay.720p.x264.{Dual.Audio}.[Hindi Org-English].-.Hon3yHD

Posted on August 10, 2018 in Movies » Misc , verified torrent

Size: 1 GB , Seeds: 0 , Peers: 0 ( Updated August 10, 2018 - Refresh )

Could not find any peer statistics from any torrent tracker.
This does not mean the torrent is dead.

* Download via Magnet Link , * To download files you need a Bittorrent Client , * How to download torrents from Bit Torrent Scene?

Scrape History ( seeds + peers )

Internal Files

Poseidon.2006.BluRay.720p.x264.{Dual.Audio}.[Hindi Org-English].-.Hon3yHD
Poseidon.2006.BluRay.720p.x264.{Dual.Audio}.[Hindi Org-English].-.Hon3yHD.mkv   1.0 GB

Torrent Seed By www.cyber-planet.in.txt   0.1 KB

Hon3yHD.net.txt   0.1 KB

Hash Code

985382706961eeb49a50074368e708615850e7f3

Description


SCREENSHOT

https://www.imdb.com/title/tt0409182/


Format : Matroska

Format version : Version 4 / Version 2

File size : 1.00 GiB

Duration : 1 h 38 min

Overall bit rate : 1 459 kb/s


Video

ID : 1

Format : AVC

Format/Info : Advanced Video Codec

Format profile : [email protected]
Format settings : CABAC / 8 Ref Frames

Format settings, CABAC : Yes

Format settings, ReFrames : 8 frames

Codec ID : V_MPEG4/ISO/AVC

Duration : 1 h 38 min

Bit rate : 1 200 kb/s

Width : 1 280 pixels

Height : 530 pixels

Display aspect ratio : 2.40:1

Original display aspect rat : 2.40:1

Frame rate mode : Constant

Frame rate : 23.976 (24000/1001) FPS


Audio #1

ID : 2

Format : AAC

Format/Info : Advanced Audio Codec

Format profile : LC

Codec ID : A_AAC-2

Duration : 1 h 38 min

Bit rate : 128 kb/s

Channel(s) : 2 channels

Channel positions : Front: L R

Sampling rate : 48.0 kHz

Frame rate : 46.875 FPS (1024 SPF)

Compression mode : Lossy

Delay relative to video : -21 ms

Stream size : 90.1 MiB (9%)

Title : Stereo

Language : Hindi


Audio #2

ID : 3

Format : AAC

Format/Info : Advanced Audio Codec

Format profile : LC

Codec ID : A_AAC-2

Duration : 1 h 38 min

Bit rate : 128 kb/s

Channel(s) : 2 channels

Channel positions : Front: L R

Sampling rate : 48.0 kHz

Frame rate : 46.875 FPS (1024 SPF)

Compression mode : Lossy

Delay relative to video : -21 ms

Stream size : 90.0 MiB (9%)

Title : Stereo

Language : English


SCREENSHOT

SCREENSHOT SCREENSHOT SCREENSHOT SCREENSHOT

Torrent location

https://www.1337x.to/torrent/3167339/Poseidon-2006-BluRay-720p-x264-Dual-Audio-Hindi-Org-English-Hon3yHD/

Trackers

Refresh Leechers : Updated August 10, 2018

1. udp://9.rarbg.com:2710/announce

2. udp://tracker.opentrackr.org:1337/announce

3. udp://tracker.pirateparty.gr:6969/announce

4. udp://tracker.leechers-paradise.org:6969/announce

5. udp://tracker.coppersurfer.tk:6969/announce

6. udp://tracker.zer0day.to:1337/announce

Comments

You must log in to add a comment.

Embed Code

Sharing Widget

Related torrents

FILENAME SIZE SEEDS PEERS ADDED UPD
[i] Poseidon 2006 BluRay 720p DTS x264-3Li 3.35 GB 2 4 6 years 1 year
[i] Poseidon 2006 720p BluRay DTS x264-CHD
posted by hotpena in Movies - Action
4.36 GB 1 0 3 years 7 months
[i] Poseidon 2006 BluRay 720p DTS x264-CHD 4.36 GB 0 0 8 years 1 year

Top Movies ( auto generated report )

FILENAME SIZE SEEDS PEERS ADDED UPD
[i] The Meg 2018 HDCAM XViD AC3-ETRG 1.26 GB 806 669 3 days 2 days
[i] TAG 2018 BRRip XViD-ETRG 705.11 MB 690 375 3 days 2 days
[i] Skyscraper.2018.HC.HDRip.XviD.AC3-EVO 1.36 GB 603 204 4 days 1 day
[i] The Package 2018 HDRip XViD-ETRG 704.87 MB 536 430 4 days 3 days
[i] Skyscraper.2018.720p.HC.HDRip.X264.AC3-EVO 2.53 GB 456 207 4 days 3 days
[i] The Spy Who Dumped Me 2018 HDCAM XViD AC3-ETRG 1.25 GB 455 395 2 days 1 day
[i] Love at Sea 2018 Hallmark 720p HDTV X264 Solar 1.08 GB 283 93 1 day 19 hours
[i] Hotel Artemis 2018 HDCAM XViD AC3-ETRG 1.17 GB 261 209 3 days 2 days
[i] Skyscraper 2018 720p HC HDRip x264 Dual Audio [Hindi - English] [MW] 916.04 MB 241 195 3 days 2 days
[i] 2047 - Virtual Revolution 720p h264 ita eng sub ita fre-MIRCrew 1.8 GB 231 176 3 days 2 days