Peter Rabbit 2018 READ INFO 720p WEB-DL H264 AC3 LLG

Posted by LifeLongg •968 on April 16, 2018 in Movies » Animation , verified torrent

Size: 894.83 MB , Seeds: 12 , Peers: 240 ( Updated June 19, 2018 - Refresh )

* Download via Magnet Link , * To download files you need a Bittorrent Client , * How to download torrents from Bit Torrent Scene?

Scrape History ( seeds + peers )

Internal Files

Peter.Rabbit..2018.READ.INFO.720p.WEB-DL.H264.AC3.LLG
Sample.ts   11.21 MB
Peter.Rabbit..2018.READ.INFO.720p.WEB-DL.H264.AC3.LLG.mp4   883.62 MB

Hash Code

1e91e2dd42bc86fce0cc8bc54532bd98f63bc8bf

Description

SCREENSHOT

SCREENSHOT

******************************Thumbnail:**********************

SCREENSHOT

******************************Screenshots:********************

Screenshot 1

Screenshot 2

Screenshot 3

Screenshot 4

Screenshot 5

Screenshot 6

Screenshot 7

Screenshot 8

Screenshot 9

Screenshot 0

**************************************************************

Note :Clear Cam audio

Complete name : Peter.Rabbit..2018.READ.INFO.720p.WEB-DL.H264.AC3.LLG.mp4
Format : MPEG-4
Format profile : Base Media
Codec ID : isom (isom/iso2/avc1/mp41)
File size : 884 MiB
Duration : 1 h 34 min
Overall bit rate : 1 306 kb/s
Writing application : Lavf57.56.101

Video
ID : 1
Format : AVC
Format/Info : Advanced Video Codec
Format profile : High@L3.1
Format settings : CABAC / 4 Ref Frames
Format settings, CABAC : Yes
Format settings, RefFrames : 4 frames
Codec ID : avc1
Codec ID/Info : Advanced Video Coding
Duration : 1 h 34 min
Bit rate : 1 200 kb/s
Width : 1 280 pixels
Height : 530 pixels
Display aspect ratio : 2.40:1
Frame rate mode : Constant
Frame rate : 29.970 (29970/1000) FPS
Color space : YUV
Chroma subsampling : 4:2:0
Bit depth : 8 bits
Scan type : Progressive
Bits/(Pixel*Frame) : 0.059
Stream size : 794 MiB (90%)

Audio
ID : 2
Format : AC-3
Format/Info : Audio Coding 3
Codec ID : ac-3
Duration : 1 h 34 min
Bit rate mode : Constant
Bit rate : 128 kb/s
Channel(s) : 2 channels
Channel positions : Front: L R
Sampling rate : 48.0 kHz
Frame rate : 31.250 FPS (1536 SPF)
Bit depth : 16 bits
Compression mode : Lossy
Stream size : 86.6 MiB (10%)
Language : English
Service kind : Complete Main
Default : Yes
Alternate group : 1

Trackers

Refresh Leechers : Updated June 19, 2018

1. udp://tracker.openbittorrent.com:80/announce

2. udp://tracker.opentrackr.org:1337/announce

Comments

You must log in to add a comment.

Embed Code

Sharing Widget

Top Movies ( auto generated report )

FILENAME SIZE SEEDS PEERS ADDED UPD
[i] Traffik (2018) [BluRay] [720p] [YTS AM] 820.11 MB 3689 2099 4 days 3 days
[i] 5th Passenger (2018) [WEBRip] [720p] [YTS AM] 770.87 MB 3061 1530 4 days 3 days
[i] 5th Passenger (2018) [WEBRip] [1080p] [YTS AM] 1.44 GB 2701 888 4 days 3 days
[i] Bilal A New Breed of Hero (2015) [WEBRip] [720p] [YTS AM] 940.45 MB 2114 832 4 days 3 days
[i] Traffik (2018) [BluRay] [1080p] [YTS AM] 1.55 GB 2032 850 4 days 3 days
[i] Bilal A New Breed of Hero (2015) [WEBRip] [1080p] [YTS AM] 1.76 GB 1482 403 4 days 1 day
[i] White Fang (2018) [WEBRip] [720p] [YTS AM] 744.41 MB 1446 483 4 days 3 days
[i] Incredibles 2 2018 HDTC XViD AC3-ETRG 1.31 GB 1317 1064 2 days 1 day
[i] The Endless (2017) [BluRay] [720p] [YTS AM] 964.73 MB 1203 447 4 days 3 days
[i] 211 (2018) [BluRay] [720p] [YTS AM] 753.25 MB 1022 408 4 days 3 days