Kickboxer Retaliation 2018 720p BRRip x264 ESub

Posted by moviefreak •1691 on March 14, 2018 in Movies » Action , verified torrent

Size: 1020 MB , Seeds: 1 , Peers: 1 ( Updated June 21, 2018 - Refresh )

* Download via Magnet Link , * To download files you need a Bittorrent Client , * How to download torrents from Bit Torrent Scene?

Scrape History ( seeds + peers )

Internal Files

Kickboxer Retaliation 2018 720p BRRip x264 ESub
Kickboxer Retaliation 2018 720p BRRip x264 ESub.mkv   1020 MB

Hash Code

2c63423630649bf05056a225d83ed031b7bcf894

Description


SCREENSHOT


General
Format : Matroska
Format version : Version 4 / Version 2
File size : 1 020 MiB
Duration : 1 h 50 min
Overall bit rate : 1 291 kb/s

Video
ID : 1
Format : AVC
Format/Info : Advanced Video Codec
Format profile : High@L4.1
Format settings : CABAC / 4 Ref Frames
Format settings, CABAC : Yes
Format settings, RefFrames : 4 frames
Codec ID : V_MPEG4/ISO/AVC
Duration : 1 h 50 min
Bit rate : 1 200 kb/s
Width : 1 280 pixels
Height : 536 pixels
Display aspect ratio : 2.40:1
Frame rate mode : Constant
Frame rate : 23.976 (24000/1001) FPS
Color space : YUV
Chroma subsampling : 4:2:0
Bit depth : 8 bits
Scan type : Progressive
Bits/(Pixel*Frame) : 0.073
Stream size : 943 MiB (92%)
Writing library : x264 core 148 r2708 86b7198
Default : Yes
Forced : No

Audio
ID : 2
Format : AAC
Format/Info : Advanced Audio Codec
Format profile : HE-AAC / LC
Format settings : Explicit
Codec ID : A_AAC-2
Duration : 1 h 50 min
Bit rate : 96.0 kb/s
Channel(s) : 2 channels
Channel positions : Front: L R
Sampling rate : 48.0 kHz / 24.0 kHz
Frame rate : 23.438 FPS (1024 SPF)
Compression mode : Lossy
Stream size : 74.8 MiB (7%)
Language : English
Default : Yes
Forced : No

Text
ID : 3
Format : VobSub
Muxing mode : zlib
Codec ID : S_VOBSUB
Codec ID/Info : Picture based subtitle format used on DVDs
Duration : 1 h 41 min
Bit rate : 1 561 b/s
Count of elements : 729
Stream size : 1.13 MiB (0%)
Language : English
Default : Yes
Forced : No




https://pichub.site/image/f3Dv6
https://pichub.site/image/f37D4
https://pichub.site/image/f3cny
https://pichub.site/image/f3Vgp
https://pichub.site/image/f3yt0
https://pichub.site/image/f3wMb

Trackers

Refresh Leechers : Updated June 21, 2018

1. udp://tracker.pirateparty.gr:6969/announce

2. udp://tracker.opentrackr.org:1337/announce

3. http://tracker.opentrackr.org/announce

4. udp://tracker.vanitycore.co:6969/announce

5. udp://public.popcorn-tracker.org:6969/announce

6. udp://9.rarbg.to:2710/announce

7. udp://9.rarbg.me:2710/announce

8. udp://9.rarbg.com:2770/announce

9. udp://inferno.demonoid.pw:3391/announce

10. udp://tracker.internetwarriors.net:1337/announce

11. udp://ipv4.tracker.harry.lu:80/announce

12. udp://p4p.arenabg.ch:1337/announce

13. http://tracker.vanitycore.co:6969/announce

14. http://public.popcorn-tracker.org:6969/announce

15. udp://tracker.zer0day.to:1337/announce

Comments

You must log in to add a comment.

Embed Code

Sharing Widget

Related torrents

FILENAME SIZE SEEDS PEERS ADDED UPD
[i] Kickboxer Retaliation (2018) [BluRay] [720p] [YTS AM] 969.11 MB 255 31 3 months 1 day
[i] Kickboxer Retaliation (2018) 720p H264 ita eng Ac3 5 1 sub ita eng BaMax71 MIRCrew
posted by BaMax1571 in Movies - Drama
2.43 GB 11 3 2 months 1 week
[i] Kickboxer Retaliation 2018 720p WEB-DL AAC LLG
posted by LifeLongg in Movies - Action
775.92 MB 2 1 4 months 1 month

Top Movies ( auto generated report )

FILENAME SIZE SEEDS PEERS ADDED UPD
[i] Rampage (2018) [WEBRip] [720p] [YTS AM] 924.3 MB 13321 5088 6 days 7 hours
[i] Rampage (2018) [WEBRip] [1080p] [YTS AM] 1.73 GB 10704 4452 6 days 7 hours
[i] Ready Player One (2018) [WEBRip] [1080p] [YTS AM] 2.24 GB 9905 2643 6 days 7 hours
[i] Ready Player One (2018) [WEBRip] [720p] [YTS AM] 1.16 GB 8586 2995 6 days 7 hours
[i] Stolen princess Ruslan and Ludmila (2018) [WEBRip] [720p] [YTS AM] 770.92 MB 3461 2144 1 day 6 hours
[i] Blockers (2018) [WEBRip] [720p] [YTS AM] 861.94 MB 3014 1665 4 days 2 days
[i] Isle of Dogs (2018) [WEBRip] [1080p] [YTS AM] 1.55 GB 2561 854 4 days 3 days
[i] Blockers (2018) [WEBRip] [1080p] [YTS AM] 1.62 GB 2549 1065 4 days 3 days
[i] Life of the Party (2018) [WEBRip] [720p] [YTS AM] 886.77 MB 2513 995 6 days 7 hours
[i] Stolen princess Ruslan and Ludmila (2018) [WEBRip] [1080p] [YTS AM] 1.45 GB 2489 1048 1 day 6 hours